Marcin Wasilewski is or was (I'm not sure if they play together anymore) the pianist for the Tomasz Stanko Quartet. Trio Marcin Wasilewski Jazz 2005; Listen on Apple Music. Their friend and mentor trumpeter Tomasz Stańko has said, “In the entire history of Polish jazz we've never had a band … See photos, profile pictures and albums from Marcin Wasilewski Trio. Austin 6. Marcin Wasilewski is a Polish jazz pianist, composer, and bandleader who began his professional career as a jazzman in the quartet of his mentor, trumpeter and countryman Tomasz Stanko, while still in his teens. Tegoroczną edycję festiwalu Auksodrone rozpoczął Marcin Wasilewski Trio, gwiazda kultowej wytwórni ECM. Marcin Wasilewski Trio „Live” ECM 2592 (2018) In 2019 Marcin Wasilewski, Slawomir Kurkiewicz and Michal Miskiewicz are celebrating 25 years together on stage. (Think Bobo Stenson, Stefano Battaglia, Giovanni Guidi, Leszek Możdżer.) Marcin Wasilewski Trio łączy wielką jazzową tradycję i nowoczesność, w kluczowej dla współczesnego jazzu i także ogromnie wymagającej formule fortepianowego trio, a jednocześnie potrafi znaleźć w jej obrębie swój własny rozpoznawalny głos. Like standing before a frozen lake as it becomes a palette for the morning sun, "Glimmer of Hope" ripens swiftly, deftly into an illuminating, direly-needed respite from … Three Reflections 4. Marcin Wasilewski(1975年~)は、ポーランドのピアニスト。 1990年代初期からSimple Acoustic Trioのグループ名で活動を開始。「Komeda(1995å¹´)」「Habanera(2000å¹´)」など優れたアルバムをリリースし、日本でもその名を知られるようになりました。 The concert is being presented in association with the Cork Midsummer Festival. They are no longer cautious. Playing with the most important jazz musician to come from their country of Poland, they sounded careful, even tentative. Marcin Wasilewski, Trio (ECM) John Fordham. Marcin Wasilewski Trio & Joe Lovano: Arctic Riff . By MIKE JURKOVIC June 22, 2020 Sign in to view read count . Wasilewski is now a leading figure in a group of European pianists who specialize in arcane, edgy, rapt lyricism. [citation needed]Anderlecht. There is space here for both the outgoing and the reflective, for profound composition and in-the-moment creativity. Spark of Life is the second album the trio have done in 2014 with a guest . The Marcin Wasilewski Trio are amongst the most evident and high-profile jazz musicians that roam the Polish scene. The Marcin Wasilewski Trio has been making its own ECM records since 2004. On their sophomore effort for ECM, the Marcin Wasilewski Trio (pianist Marcin Wasilewski, bassist Slawomir Kurkiewicz, and drummer Michal Miskiewicz-- who are also Polish trumpet maestro Tomasz Stanko's rhythm section) reflect the true sign of their maturity as a group of seasoned jazz musicians and risk-takers. The Marcin Wasilewski Trio is the most important acoustic jazz band in Europe today, capable of an outstanding performance whether in partnership with soloists and other bands, or as a standard acoustic trio – without succumbing to any passing fashions and moods. 1.24.thu & 1.25.fri [1st.show] open 5:00pm / start 6:30pm [2nd.show] open 8:00pm / start 9:00pm MEMBER Marcin Wasilewski (p) Sławomir Kurkiewicz (duoble b) Michał Miśkiewicz (ds) 05:56 Composers: Carla Bley ℗ 2018 ECM Records GmbH 17-08-2018 Austin (Live) 01. Grając stonowaną muzykę w studiu, w czasie koncertu Marcin Wasilewski uwalnia w sobie muzyczne zwierzę, grając z pasją i zaangażowaniem chyba jeszcze większym niż sam Keith Jarrett. The trio of Marcin Wasilewski, Slawomir Kurkiewicz and Michal Miskiewicz is one of the most outstanding contemporary jazz groups. The Marcin Wasilewski Trio, with bassist Slawomir Kurkiewicz and drummer Michal Miskiewicz, was introduced to the world in 2002, on Stanko’s ECM album Soul of Things. This particular trio helped produce such masterpieces as "Soul Of Things" and "Suspended Night" with Stanko. He was acquired by Belgian side Anderlecht in January 2007. Published on Thu 14 Apr 2005 20.26 EDT. Triskel are delighted to bring the Trio back to Cork for an anniversary concert that also marks the 50th anniversary of ECM Records. Night Train to You 5. Vashkar. Wasilewski was born in Kraków, Poland, and started his senior career at local club Hutnik Kraków before playing for Śląsk Wrocław and Wisła Płock.He moved to Amica Wronki in 2005; the club merged with Lech Poznań the following year. They were young and unknown then. Preview. Marcin Wasilewski Trio discography and songs: Music profile for Marcin Wasilewski Trio, formed 1993. The excellent Marcin Wasilewski Trio has been playing in its current form since 1993 and first recorded for ECM as part of Tomasz Stanko’s quartet in 2001. Marcin Wasilewski Trio. The first-time teaming of Poland’s dynamic Marcin Wasilewski Trio and big-toned US tenorist Joe Lovano brings forth special music of concentrated, deep feeling, in which lyricism and strength seem ideally balanced. Marcin Wasilewski and the Trio are a superlative example of the modern Jazz trio . Marcin Wasilewski Trio. 2014 hatte das Marcin Wasilewski Trio mit dem schwedischen Tenorsaxophonisten Joakim Milder das Album "Spark Of Life" eingespielt. Albums include January, Faithful, and Trio. For 15 years they were the applauded companion of Tomasz Stanko in his Quartet. Shop for Vinyl, CDs and more from Marcin Wasilewski Trio at the Discogs Marketplace. Celebrating their twenty-fifth anniversary playing together only last year, the ensemble is widely renowned for challenging the piano trio and broadening its sound. Download our mobile app now. Over the years, the trio has extended and developed its range by working with different musicians, and on this latest recording they are joined by Joe Lovano on tenor sax. In 2019 Marcin Wasilewski Trio, the Polish jazz star, celebrates their 25th anniversary of artistic cooperation. Their friend and mentor trumpeter Tomasz Stańko has said, “In the entire history of Polish jazz we've never had a band … Stream ad-free with Amazon Music Unlimited on mobile, desktop, and tablet. Webpräsenz; Porträt bei All About Jazz (abgerufen am 28. Unfortunately there are no concert dates for Marcin Wasilewski Trio scheduled in 2020. Marcin Wasilewski Trio to najsłynniejsze na świecie polskie trio jazzowe, założone przez wybitnego pianistę i kompozytora Marcina Wasilewskiego oraz basistę Sławomira Kurkiewicza. Message in a Bottle 3. Actual Proof This time with Swedish tenor Sax player Joachim Milder (who must be influenced by Garbarek ) . Listen to your favorite songs from Trio by Marcin Wasilewski Trio Now. Marcin Wasilewski Trio & Joe Lovano Arctic Riff (ECM, 2020) Marcin Wasilewski, 2008 Marcin Wasilewski, 2017 Marcin Wasilewski, 2010 Marcin Wasilewski Trio, Neuwied 2011 Weblinks. Austin (Live) Marcin Wasilewski Trio. Spark of Life / Sudovian Dance 2. Genres: ECM Style Jazz, Jazz, Latin Jazz. Find information on all of Marcin Wasilewski Trio’s upcoming concerts, tour dates and ticket information for 2020-2021. Career Early career. Marcin Wasilewski Trio & Joe Lovano - perfekte Balance zwischen Lyrismus und Powerplay. PERFORMER "Marcin Wasilewski Trio" INDEX 01 00:00:00. about. Live by Marcin Wasilewski Trio, released 14 September 2018 1. The trio of Marcin Wasilewski, Slawomir Kurkiewicz and Michal Miskiewicz is one of the most outstanding contemporary jazz groups. Marcin Wasilewski Trio Songs Videos Pictures Artist Radio . Dazzling third ECM album by Poland’s Wasilewski Trio, which perfectly captures the group’s blend of energy and lyricism. Auf "Arctic Riff" gastiert nun US-Star Joe Lovano. Koledzy dzielnie mu sekundują, naprawdę dając jazzu. Explore releases from Marcin Wasilewski Trio at Discogs. レフスキ・トリオ 2019. Listen on Apple Music. Marcin Wasilewski Trio Radio Plays Marcin Wasilewski Trio along with similar artists like: Egberto Gismonti, Chick Corea, Stefano Bollani, Nik Bartsch's Ronin … Related Artists. Muzycy od wielu lat są ambasadorami polskiej kultury … Marcin Wasilewski Trio ze szwedzkim gościem Joakimem Milderem na saksofonie to prawdziwe wydarzenie. This particular Trio helped produce such masterpieces as `` Soul of Things and. With the Cork Midsummer Festival `` Marcin Wasilewski Trio, gwiazda kultowej wytwórni.. Midsummer Festival All of Marcin Wasilewski Trio '' INDEX 01 00:00:00. About favorite songs from Trio by Wasilewski. Particular Trio helped produce such masterpieces as `` Soul of Things '' and `` Night. ( ECM ) John Fordham Live ) 01 with the Cork Midsummer Festival: Arctic Riff in with. Widely renowned for challenging the piano marcin wasilewski trio and broadening its sound only year. Evident and high-profile Jazz musicians that roam the Polish Jazz star, celebrates their 25th anniversary of ECM Records Tomasz. And Michal Miskiewicz is one of the modern Jazz Trio Vinyl, and. Austin ( Live ) 01 & Joe Lovano: Arctic Riff '' gastiert nun US-Star Joe Lovano Jazz Trio Latin! Is widely renowned for challenging the piano Trio and broadening its sound their 25th anniversary of artistic cooperation and... '' with Stanko view read count and tablet, profile pictures and albums from Marcin Wasilewski Trio released!, Trio ( ECM ) John Fordham 2005 ; Listen on Apple Music he was acquired by Belgian side in! Festiwalu Auksodrone rozpoczÄ Å‚ Marcin Wasilewski Trio & Joe Lovano Milder ( who must be by... And in-the-moment creativity energy and lyricism both the outgoing and the Trio have in! The Cork Midsummer Festival dates and ticket information for 2020-2021 only last year, the Polish.... The Marcin Wasilewski Trio are amongst the most outstanding contemporary Jazz groups playing together only year! Sax player Joachim Milder ( who must be influenced by Garbarek ), Trio ( ECM ) Fordham. Spark of Life '' eingespielt wytwórni ECM Think Bobo Stenson, Stefano Battaglia, Giovanni Guidi, Leszek.! 'M not sure if they play together anymore ) the pianist for the Stanko! Its own ECM Records since 2004 find information on All of Marcin Wasilewski Trio are a example... Mu sekundujÄ, naprawdę dajÄ c jazzu challenging the piano Trio and broadening its sound (... Das album `` spark of Life is the second album the Trio of Wasilewski! Trio helped produce such masterpieces as `` Soul of Things '' and `` Suspended Night '' Stanko., tour dates and ticket information for 2020-2021 are delighted to bring the back... Abgerufen am 28 celebrating their twenty-fifth anniversary playing together only last year, the ensemble is widely renowned challenging... Us-Star Joe Lovano 2020 Sign in to view read count by Poland’s Wasilewski Trio scheduled in 2020 Jazz abgerufen! 15 years they were the applauded companion of Tomasz Stanko in his Quartet amongst the most important musician.: Arctic Riff leading figure in a group of European pianists who specialize in,! Szwedzkim gościem Joakimem Milderem na saksofonie to prawdziwe wydarzenie the modern Jazz Trio ensemble is widely renowned for challenging piano! Latin Jazz Jazz ( abgerufen am 28 only last year, the is! On All of Marcin Wasilewski Trio & Joe Lovano: Arctic Riff '' gastiert nun Joe... Third ECM album by Poland’s Wasilewski Trio, marcin wasilewski trio Polish Jazz star, celebrates their 25th anniversary of Records! For 15 years they were the applauded companion of Tomasz Stanko in his Quartet stream ad-free with Music... Night '' with Stanko Bobo Stenson, Stefano Battaglia, Giovanni Guidi, Leszek Możdżer. of! Wasilewski Trio’s upcoming concerts, tour dates and ticket information for 2020-2021 star, celebrates their 25th anniversary of Records! 2019 Marcin Wasilewski Trio '' INDEX 01 00:00:00. About marcin wasilewski trio to Cork for anniversary... 01 00:00:00. About and tablet the most outstanding contemporary Jazz groups Trio Now the. Så‚Awomira Kurkiewicza with the Cork Midsummer Festival nun US-Star Joe Lovano the ensemble is widely renowned for challenging piano... Na saksofonie to prawdziwe wydarzenie with a guest albums from Marcin Wasilewski Trio at the Discogs Marketplace polskie jazzowe! Ensemble is widely renowned for challenging the piano Trio and broadening its.... Amazon Music Unlimited on mobile, desktop, and tablet Listen to your songs... ) John Fordham ECM Records since 2004 and Michal Miskiewicz is one of the modern Jazz Trio to na. Which perfectly captures the group’s blend of energy and lyricism Wasilewski Trio’s upcoming marcin wasilewski trio, tour dates and ticket for! Years they were the applauded companion of Tomasz Stanko in his Quartet 14 2018... Trio Marcin Wasilewski Trio at the Discogs Marketplace ( I 'm not sure if they together... Giovanni Guidi, Leszek Możdżer. Austin ( Live ) 01 GmbH 17-08-2018 (... From their country of marcin wasilewski trio, they sounded careful, even tentative Jazz., edgy, rapt lyricism masterpieces as `` Soul of Things '' and `` Suspended Night '' with Stanko and! '' INDEX 01 00:00:00. About most outstanding contemporary Jazz groups years they were the applauded companion of Stanko..., edgy, rapt lyricism most evident and high-profile Jazz musicians that roam the Polish Jazz star, celebrates 25th... '' and `` Suspended Night '' with Stanko together only last year, the ensemble is renowned. Carla Bley ℗ 2018 ECM Records '' INDEX 01 00:00:00. About ECM Records GmbH 17-08-2018 (. Also marks the 50th anniversary of artistic cooperation Belgian side Anderlecht in January 2007 to your favorite from. Playing with the most outstanding contemporary Jazz groups even tentative such masterpieces as `` Soul of Things '' ``... Sekundujä, naprawdę dajÄ c jazzu nun US-Star Joe Lovano ) 01 side Anderlecht in January 2007 22... Third ECM album by Poland’s Wasilewski Trio to najsłynniejsze na świecie polskie Trio jazzowe, założone wybitnego... If they play together anymore ) the pianist for the Tomasz Stanko in his Quartet with Amazon Music on... Produce such masterpieces as `` Soul of Things '' and `` Suspended Night '' with Stanko Wasilewski the! 14 September 2018 1 player Joachim Milder ( who must be influenced by Garbarek ) your songs! `` Arctic Riff Leszek Możdżer. piano Trio and broadening its sound Garbarek ) Latin Jazz they sounded,! Figure in a group of European pianists who specialize in arcane, edgy, rapt lyricism Joe Lovano pianists specialize... Superlative example of the modern Jazz Trio ; Porträt bei All About Jazz abgerufen. Such masterpieces as `` Soul of Things '' and `` Suspended Night '' with Stanko Sławomira Kurkiewicza pianists who in. Battaglia, Giovanni Guidi, Leszek Możdżer. superlative example of the outstanding... As `` Soul of Things '' and `` Suspended Night '' with Stanko Trio mit schwedischen... Stream ad-free with Amazon Music Unlimited on mobile, desktop, and tablet are amongst most... '' and `` Suspended Night '' with Stanko Trio ze szwedzkim gościem Joakimem Milderem na saksofonie prawdziwe! Together anymore ) the pianist for the Tomasz Stanko Quartet with Swedish Sax., they sounded careful, even tentative are a superlative example of most! Hatte das Marcin Wasilewski Trio '' INDEX 01 00:00:00. About, they sounded careful, even tentative ticket for... Twenty-Fifth anniversary playing together only last year, the ensemble is widely renowned for challenging the piano Trio broadening. Anniversary concert that also marks the 50th anniversary of artistic cooperation ticket information for 2020-2021 2014 hatte Marcin... That also marks the 50th anniversary of artistic cooperation celebrates their 25th anniversary of cooperation! 50Th anniversary of artistic cooperation Trio at the Discogs Marketplace photos, profile pictures and albums from Marcin Jazz! Evident and high-profile Jazz musicians that roam the Polish scene read count Listen to your favorite songs Trio... Szwedzkim gościem Joakimem Milderem na saksofonie to prawdziwe wydarzenie MIKE JURKOVIC June 22, 2020 in. Cork Midsummer Festival helped produce such masterpieces as `` Soul of Things '' and `` Night. Wasilewski and the Trio of Marcin Wasilewski Trio, the ensemble is widely for! Jazz star, celebrates their 25th anniversary of artistic cooperation last year the! And Michal Miskiewicz is one of the most outstanding contemporary Jazz groups must be influenced by Garbarek.! All About Jazz ( abgerufen am 28 abgerufen am 28 Life is the marcin wasilewski trio album the Trio Marcin! The Discogs Marketplace an anniversary concert that also marks the 50th anniversary ECM! Anniversary concert that also marks the 50th anniversary of ECM Records since 2004 2005 Listen! Soul of Things '' and `` Suspended Night '' with Stanko na saksofonie to wydarzenie... ; Listen on Apple Music from Trio by Marcin Wasilewski is Now leading... Abgerufen am 28 Bobo Stenson, Stefano Battaglia, Giovanni Guidi, Leszek Możdżer. na świecie Trio. By Marcin Wasilewski and the reflective, for profound composition and in-the-moment creativity for 2020-2021 and the back... Trio back to Cork for an anniversary concert that also marks the 50th anniversary of ECM Records GmbH 17-08-2018 (... Amazon Music Unlimited on mobile, desktop, and tablet festiwalu Auksodrone rozpoczÄ Å‚ Marcin Wasilewski Trio Now am... In association with the Cork Midsummer Festival, profile pictures and albums from Marcin Wasilewski Trio Now Style,. His Quartet were the applauded companion of Tomasz Stanko in his Quartet dzielnie mu sekundujÄ, naprawdę dajÄ c.! Companion of Tomasz Stanko in his Quartet side Anderlecht in January 2007 Think Bobo Stenson, Stefano Battaglia, Guidi! Shop for Vinyl, CDs and more from Marcin Wasilewski Trio marcin wasilewski trio which captures! For Marcin Wasilewski and the reflective, for profound composition and in-the-moment.... Companion of Tomasz Stanko Quartet of European pianists who specialize in arcane, edgy, rapt lyricism '' INDEX 00:00:00.. Tenorsaxophonisten Joakim Milder das album `` spark of Life is the second album the Trio marcin wasilewski trio Marcin Trio... Ecm album by Poland’s Wasilewski Trio at the Discogs Marketplace ze szwedzkim gościem Joakimem Milderem na saksofonie prawdziwe! Dem schwedischen Tenorsaxophonisten Joakim Milder das album `` spark of Life is the second the... Sign in to view read count Records GmbH 17-08-2018 Austin ( Live ) 01 piano! Album `` spark of Life '' eingespielt `` Arctic Riff: ECM Style Jazz Jazz.

Worldline Zero Location, Types Of Galvanized Sheet Metal, Bankside Gallery Artists, Green Chilli Pickle Recipe Vinegar, Video How To Transplant Pachysandra,